是否有编解码器或编解码器包? -- audio 领域 和 video 领域 android 相关 的问题

Are there codecs or codec packs?


简体版||繁體版
1
vote

问题

中文

我在Windows中没有任何问题的视频(带有K-Lite Codec包,但可能这并不重要)。

我将它复制到我的智能手机与OS ATROID 5.0.2,我确实需要一些编解码器/编解码器来播放它,因为我收到了一个不可能的消息 播放它。

我知道有媒体播放器具有嵌入式编解码器,但这不是我的解决方案 - 我想用我最喜欢的媒体播放器播放它。

将其转换为另一个(支持的)格式也是不可接受的。

是否有编解码器?这是它的MediaInfo输出:

  General Complete name                : C:VideosWoods.avi Format                       : AVI Format/Info                  : Audio Video Interleave File size                    : 43.2 MiB Duration                     : 2 min 59 s Overall bit rate             : 2 050 kb/s Writing library              : VirtualDub build 24469/release  Video ID                           : 0 Format                       : MPEG-4 Visual Format settings              : BVOP1 Format settings, BVOP        : 1 Format settings, QPel        : No Format settings, GMC         : No warppoints Format settings, Matrix      : Default (H.263) Muxing mode                  : Packed bitstream Codec ID                     : DX50 Codec ID/Hint                : DivX 5 Duration                     : 3 min 15 s Bit rate                     : 1 977 kb/s Nominal bit rate             : 3 695 kb/s Width                        : 640 pixels Height                       : 480 pixels Display aspect ratio         : 4:3 Frame rate                   : 25.000 FPS Color space                  : YUV Chroma subsampling           : 4:2:0 Bit depth                    : 8 bits Scan type                    : Progressive Compression mode             : Lossy Bits/(Pixel*Frame)           : 0.257 Stream size                  : 41.6 MiB (96%) Writing library              : DivX 5.2.1 Beta (UTC 2004-09-08)  Audio ID                           : 1 Format                       : MPEG Audio Format version               : Version 2 Format profile               : Layer 3 Format settings              : Joint stereo / Intensity Stereo + MS Stereo Codec ID                     : 55 Codec ID/Hint                : MP3 Duration                     : 2 min 59 s Bit rate mode                : Constant Bit rate                     : 64.0 kb/s Channel(s)                   : 2 channels Sampling rate                : 22.05 kHz Compression mode             : Lossy Stream size                  : 1.32 MiB (3%) Alignment                    : Split accross interleaves Interleave, duration         : 40  ms (1.00 video frame) Interleave, preload duration : 502  ms   
english

I have a video without any problem in Windows (with K-Lite Codec Pack, but probably it is not important).

I copied it into my smartphone with OS Adroid 5.0.2, and I indeed need some codec/codecs for playing it back, because I got a message that is not possible to playing it back.

I know that there are media players with embedded codecs but it is not a solution for me - I want playing it back with my favorite media player.

Converting it to another (supported) format is not acceptable, too.

Is there a codec for it? Here is MediaInfo output for it:

General Complete name                : C:\Videos\Woods.avi Format                       : AVI Format/Info                  : Audio Video Interleave File size                    : 43.2 MiB Duration                     : 2 min 59 s Overall bit rate             : 2 050 kb/s Writing library              : VirtualDub build 24469/release  Video ID                           : 0 Format                       : MPEG-4 Visual Format settings              : BVOP1 Format settings, BVOP        : 1 Format settings, QPel        : No Format settings, GMC         : No warppoints Format settings, Matrix      : Default (H.263) Muxing mode                  : Packed bitstream Codec ID                     : DX50 Codec ID/Hint                : DivX 5 Duration                     : 3 min 15 s Bit rate                     : 1 977 kb/s Nominal bit rate             : 3 695 kb/s Width                        : 640 pixels Height                       : 480 pixels Display aspect ratio         : 4:3 Frame rate                   : 25.000 FPS Color space                  : YUV Chroma subsampling           : 4:2:0 Bit depth                    : 8 bits Scan type                    : Progressive Compression mode             : Lossy Bits/(Pixel*Frame)           : 0.257 Stream size                  : 41.6 MiB (96%) Writing library              : DivX 5.2.1 Beta (UTC 2004-09-08)  Audio ID                           : 1 Format                       : MPEG Audio Format version               : Version 2 Format profile               : Layer 3 Format settings              : Joint stereo / Intensity Stereo + MS Stereo Codec ID                     : 55 Codec ID/Hint                : MP3 Duration                     : 2 min 59 s Bit rate mode                : Constant Bit rate                     : 64.0 kb/s Channel(s)                   : 2 channels Sampling rate                : 22.05 kHz Compression mode             : Lossy Stream size                  : 1.32 MiB (3%) Alignment                    : Split accross interleaves Interleave, duration         : 40  ms (1.00 video frame) Interleave, preload duration : 502  ms 
     
 
 

回答列表

2
 
vote
vote
最佳答案
 

如果使用使用Google Play服务的Android设备,Google有一个文件,需要设备必须具有:

当前 android兼容定义文档 - 5.3视频解码

您有一个Android 5.0设备本文档将适用:

Android 5.0 CDD - 5.1.3视频编解码器

请注意,您的视频文件是未列出的AVI集装箱格式,以便制造商支持该格式或任何其他编解码器。

为什么你不能只添加一个编解码器,请参阅此stackoverflow post:

将视频编解码器添加到Android

简短版本是编解码器在ROM中,除非您正在创建自己的自定义ROM,否则您无法写入ROM。

tl; dr:否,您无法添加编解码器。使用支持您的格式的第三方播放器或将视频转换为支持的格式(其中两者都拒绝)。

 

If you use an Android device with Google Play Services, Google has a document which requires what the device MUST have:

Current Android Compatibility Definition Document - 5.3 Video Decoding

As you have an Android 5.0 device this document would apply:

Android 5.0 CDD - 5.1.3 Video Codecs

Note that your video file is an AVI container format which isn't listed so it would be up to the manufacturer to support that format or any additional codecs.

As to why can't you just add a codec see this StackOverflow post:

Adding video codec to Android

The short version is that codecs are in ROM and you can't write to ROM unless you are creating your own Custom ROM.

TL;DR: No, you can't add codecs. Use a third party player which supports your format or convert your video to a supported format (both of which you've rejected).

 
 

相关问题

5  录制时是否可以将视频直接写入外部设备  ( Is it possible to write video directly to external device while recording ) 
我有一个nexus 5,我想用于一些视频录制。我想录制的会议可能会足够长,以至于它们可能会导致手机耗尽空间中间录制。我想知道是否可以将手机连接到我的MacBook(或其他一些设备),使得该文件在录制时直接写入MacBook SSD;换句话说,将手机用作外围设备。这可能吗? ...

2  有糟糕的acer iconia a500播放mp4视频是否有解决方案?  ( Is there a solution for poor acer iconia a500 playback of mp4 video ) 
播放MP4视频文件时,My Acer Iconia A500将丢弃帧并生成视频工件。它只是不支持MP4,还是有更好的MP4播放器我可以下载? 更新:拒绝它只是1080p视频的问题。 720p视频播放伟大。 ...

11  如何使用Google Talk语音和视频呼叫Android?  ( How to use google talk voice and video calling on an android ) 
如何使用Android的Google Talk语音和视频呼叫。 Google Talk应用程序仅似乎允许基于文本的聊天。但是桌面上的Google Talk支持语音呼叫和视频聊天。 ...

5  嵌入式YouTube视频有声音但没有视频  ( Embedded youtube videos have sound but no video ) 
每当我遇到一个带有嵌入式YouTube视频并按下播放的页面,那么就会听到声音,但视频将是空白的(黑屏)。 控件工作只是很好 - 这只是我没有任何视频。 如果我试图将手机旋转到横向,那么视频将在屏幕旋转之前简要展示,然后再次回到黑色。声音将继续发挥作用。如果我试图将手机旋转回肖像,那么同样的事情再次发生。 这个问题发生...

12  如何在Android上脱机观看TED视频?  ( How can i watch ted videos offline on android ) 
我正在寻找一种订阅和观看 ted ted 在htc愿望上的谈话视频,但我希望支持-line查看。 母亲ted 应用程序似乎需要一个有效的网络连接,因为我想要的不适合能够在地下观看视频。 有一个rss feed的mp4视频在这里 - 是Google Listen的任何东西,支持MP4视频吗? ...

7  Android 4.4.2 YouTube / Video暂停  ( Android 4 4 2 youtube video stuck in pause ) 
给我一​​个闪亮的新的 hudl 2 (8.3 "具有Android 4.4.2的Wi-Fi平板电脑)。 很好。它做了gmail和facebook等。 它不做的是播放来自youtube的视频,或其他来源,如bbc。这是使用YouTube Android应用程序或Android Chrome浏览器中的内部。 行为如下:...

0  如何从设备中删除下载的TED应用视频?  ( How to remove downloaded videos of ted app from device ) 
我喜欢官方允许我的应用程序下载稍后的脱机查看视频。我下载了很多视频&看着他们所有人。现在,我想从我的设备中删除它们来重新获得存储空间。但是,我无法找到应用程序的选项。我看过文件系统,但无法找到下载的视频。请帮助。 ...

0  Android是否可以从Instagram实时保存视频在缓存中?  ( Does android save videos from instagram live in the cache ) 
我昨天托管了一个Instagram实时采访,当它来将其保存到IGTV时出错。我认为它是由于网络错误或手机上可能没有足够的空间来保存或处理视频(我有3.1 GB可用,它是一个57分钟的实时视频。) 最终在编辑标题和文本之后,多次认为它是一个字符限制或不喜欢标点符号等,以及关闭飞行模式和打开数据,以防网络,我不得...

1  将视频流传输到Android  ( Streaming video to android ) 
Android本身支持类似于iPhone上类似于M3U8的类型流视频吗?寻找处理HTTP流或逐行下载的解决方案,以便在播放时提供多种质量的流和不同质量级别之间的变化。谢谢。 ...

1  YouTube Premium:下载视频 - 原始频道已删除?  ( Youtube premium downloaded videos original channel deleted ) 
我已经订阅了youtube premium,并下载了一些我想要保留的教程视频。但是,渠道所有者将很快删除他的整个频道。 在线研究很困难,我看到了混合的结果,其中一些人表示,当发生这种情况时保持下载的视频,并且当删除频道时,其他人也会被删除。 youtube应用程序会保存这些视频吗?如果没有,我怎么能挂在他们身上?...




© 2022 it.wenda123.org All Rights Reserved. 问答之家 版权所有